Combat Wombat full movie download 2020

Combat Wombat full movie download 2020 online free download Combat Wombat movie download link Combat Wombat full movie download Combat Wombat.


Combat Wombat 2020

N/A minutes - Animation
  • Ratings: N/A/10 from N/A users
  • Plot: Maggie Diggins, a wombat turned Wonder Woman, unintentionally becomes the city's superhero after she begrudgingly saves a rookie superhero sugar glider from certain doom.

  • Director: Ricard Cussó
  • Stars: Deborah Mailman, Ed Oxenbould, Frank Woodley, Judith Lucy
  • Language: English
  • Country: Australia
Complete name                            : Combat Wombat full movie download 2020 
Format                                   : Matroska
Format version                           : Version 4
File size                                : 3.28 GiB
Duration                                 : 1 h 25 min
Overall bit rate                         : 5 478 kb/s
Movie name                               : EVO
Encoded date                             : UTC 2020-10-18 23:03:35
Writing application                      : mkvmerge v35.0.0 ('All The Love In The World') 64-bit
Writing library                          : libebml v1.3.9 + libmatroska v1.5.2

Video
ID                                       : 2
Format                                   : AVC
Format/Info                              : Advanced Video Codec
Format profile                           : High@L4
Format settings                          : CABAC / 4 Ref Frames
Format settings, CABAC                   : Yes
Format settings, Reference frames        : 4 frames
Codec ID                                 : V_MPEG4/ISO/AVC
Duration                                 : 1 h 25 min
Bit rate                                 : 5 093 kb/s
Width                                    : 1 916 pixels
Height                                   : 1 076 pixels
Display aspect ratio                     : 16:9
Frame rate mode                          : Constant
Frame rate                               : 24.000 FPS
Color space                              : YUV
Chroma subsampling                       : 4:2:0
Bit depth                                : 8 bits
Scan type                                : Progressive
Bits/(Pixel*Frame)                       : 0.103
Stream size                              : 3.05 GiB (93%)
Language                                 : English
Default                                  : Yes
Forced                                   : No
Color range                              : Limited
Color primaries                          : BT.709
Transfer characteristics                 : BT.709
Matrix coefficients                      : BT.709

Audio
ID                                       : 1
Format                                   : AC-3
Format/Info                              : Audio Coding 3
Commercial name                          : Dolby Digital
Codec ID                                 : A_AC3
Duration                                 : 1 h 25 min
Bit rate mode                            : Constant
Bit rate                                 : 384 kb/s
Channel(s)                               : 6 channels
Channel layout                           : L R C LFE Ls Rs
Sampling rate                            : 48.0 kHz
Frame rate                               : 31.250 FPS (1536 SPF)
Bit depth                                : 16 bits
Compression mode                         : Lossy
Delay relative to video                  : -42 ms
Stream size                              : 236 MiB (7%)
Language                                 : English
Service kind                             : Complete Main
Default                                  : Yes
Forced                                   : No

Menu
00:00:00.000                             : en:Chapter 1
00:20:32.125                             : en:Chapter 2
00:40:22.000                             : en:Chapter 3
01:01:06.916                             : en:Chapter 4
01:20:00.541                             : en:Chapter 5

View on IMDB

SCREENSHOTS
Combat Wombat full movie download 2020
Combat Wombat full movie download 2020
Combat Wombat full movie download 2020
Combat Wombat full movie download 2020
Combat Wombat full movie download 2020
Combat Wombat full movie download 2020
Combat Wombat full movie download 2020

Combat Wombat full movie download 2020
Combat Wombat full movie download 2020


Post a Comment

Previous Post Next Post